<?xml version="1.0" standalone="no"?>
<!DOCTYPE svg PUBLIC "-//W3C//DTD SVG 1.1//EN" "http://www.w3.org/Graphics/SVG/1.1/DTD/svg11.dtd" >
<svg xmlns="http://www.w3.org/2000/svg">
<metadata>Generated by IcoMoon</metadata>
<defs>
<font id="icomoon" horiz-adv-x="1024">
<font-face units-per-em="1024" ascent="960" descent="-64" />
<missing-glyph horiz-adv-x="1024" />
<glyph unicode="&#x20;" horiz-adv-x="512" d="" />
<glyph unicode="&#xe900;" glyph-name="arrow-angled" d="M832.499 715.759l2.765-437.214c-0.026-13.594-5.419-26.556-15.010-36.066s-22.601-14.801-36.19-14.716c-13.594 0.085-26.671 5.542-36.382 15.172-9.711 9.634-15.27 22.669-15.467 36.262l-1.984 312.817-443.585-443.586c-9.602-9.604-22.673-14.946-36.339-14.861s-26.806 5.598-36.53 15.322c-9.724 9.724-15.236 22.865-15.322 36.531s5.26 26.735 14.861 36.339l443.588 443.587-312.82 1.979c-13.593 0.197-26.626 5.756-36.259 15.468s-15.087 22.787-15.173 36.38c-0.086 13.593 5.203 26.601 14.714 36.191s22.475 14.985 36.067 15.010l437.213-2.767c13.666-0.087 26.803-5.598 36.527-15.322s15.236-22.863 15.326-36.528v0z" />
<glyph unicode="&#xe901;" glyph-name="arrow-down" d="M833.954 350.059l-288-288c-8.998-8.998-21.21-14.054-33.937-14.054-12.732 0-24.939 5.056-33.941 14.054l-288 288c-8.881 9.028-13.835 21.197-13.783 33.86s5.104 24.794 14.058 33.745c8.954 8.956 21.083 14.007 33.746 14.059s24.832-4.902 33.859-13.781l206.062-206.059v588.117c0 12.73 5.056 24.94 14.059 33.941 8.998 9.001 21.21 14.059 33.941 14.059 12.727 0 24.939-5.057 33.941-14.059 8.998-9.002 14.059-21.211 14.059-33.941v-588.122l206.059 206.063c9.024 8.879 21.197 13.833 33.86 13.781 12.659-0.051 24.789-5.103 33.745-14.059 8.951-8.951 14.007-21.082 14.059-33.745s-4.902-24.832-13.786-33.86v0z" />
<glyph unicode="&#xe902;" glyph-name="arrow-left" d="M911.996 447.996c0-12.732-5.056-24.939-14.059-33.941-8.998-9.003-21.21-14.059-33.941-14.059h-588.118l206.060-206.059c8.883-9.028 13.837-21.197 13.786-33.86s-5.107-24.794-14.059-33.745c-8.956-8.956-21.086-14.007-33.749-14.059-12.659-0.051-24.83 4.902-33.857 13.781l-288 288c-9.001 9.003-14.058 21.21-14.058 33.941 0 12.727 5.057 24.939 14.058 33.941l288 287.998c9.027 8.881 21.198 13.835 33.857 13.783 12.663-0.052 24.794-5.105 33.749-14.059 8.951-8.954 14.007-21.083 14.059-33.745s-4.902-24.832-13.786-33.859l-206.055-206.060h588.114c12.732 0 24.943-5.056 33.941-14.059 9.003-9.003 14.059-21.21 14.059-33.941z" />
<glyph unicode="&#xe903;" glyph-name="arrow-right" d="M897.941 414.054l-288-288c-9.028-8.879-21.197-13.833-33.86-13.781s-24.794 5.103-33.745 14.059c-8.956 8.951-14.007 21.082-14.059 33.745s4.902 24.832 13.781 33.86l206.059 206.059h-588.117c-12.73 0-24.94 5.056-33.941 14.059s-14.059 21.21-14.059 33.941c0 12.732 5.057 24.939 14.059 33.941s21.211 14.059 33.941 14.059h588.122l-206.063 206.060c-8.879 9.027-13.833 21.196-13.781 33.859s5.103 24.792 14.059 33.745c8.951 8.954 21.082 14.007 33.745 14.059s24.832-4.902 33.86-13.783l288-287.998c8.998-9.003 14.054-21.214 14.054-33.941 0-12.732-5.056-24.939-14.054-33.941v0z" />
<glyph unicode="&#xe904;" glyph-name="arrow-up" d="M833.954 478.054c-9.003-8.998-21.21-14.059-33.937-14.059-12.732 0-24.939 5.060-33.941 14.059l-206.059 206.057v-588.115c0-12.732-5.060-24.939-14.059-33.941-9.003-9.003-21.214-14.059-33.941-14.059-12.732 0-24.943 5.056-33.941 14.059-9.003 9.003-14.059 21.21-14.059 33.941v588.119l-206.062-206.061c-9.027-8.879-21.197-13.833-33.859-13.781s-24.792 5.103-33.746 14.059c-8.954 8.951-14.007 21.082-14.058 33.745s4.902 24.832 13.783 33.858l288 288c9.003 8.999 21.21 14.054 33.941 14.054 12.727 0 24.934-5.056 33.937-14.054l288-288c9.003-9.001 14.059-21.212 14.059-33.939 0-12.732-5.056-24.939-14.059-33.941v0z" />
<glyph unicode="&#xe905;" glyph-name="call" d="M938.244 230.289c-7.561-57.707-35.819-110.703-79.518-149.137s-99.87-59.691-158.067-59.819c-339.284 0-615.326 276.041-615.326 615.325 0.128 58.197 21.386 114.368 59.82 158.068s91.43 71.957 149.134 79.517c14.71 1.631 29.557-1.466 42.388-8.842s22.979-18.647 28.972-32.18l85.889-200.408c4.454-10.403 6.242-21.753 5.197-33.021s-4.885-22.097-11.179-31.503l-70.933-108.538c32.12-65.182 85.043-117.807 150.413-149.555l107.255 71.36c9.395 6.332 20.25 10.167 31.539 11.14s22.643-0.951 32.986-5.585l200.405-85.461c13.534-5.995 24.802-16.141 32.179-28.975 7.377-12.83 10.475-27.678 8.845-42.385v0z" />
<glyph unicode="&#xe906;" glyph-name="carret-down" d="M927.637 594.359l-387.994-391.091c-7.415-7.228-17.327-11.268-27.644-11.268s-20.228 4.041-27.644 11.268l-387.993 391.091c-5.263 5.655-8.831 12.696-10.29 20.309s-0.75 15.487 2.045 22.711c2.968 7.118 7.96 13.191 14.347 17.454s13.882 6.525 21.542 6.501h775.986c7.659 0.024 15.155-2.238 21.542-6.501s11.379-10.336 14.345-17.454c2.795-7.224 3.507-15.098 2.048-22.711s-5.026-14.654-10.291-20.309z" />
<glyph unicode="&#xe907;" glyph-name="carret-left" d="M725.333 835.998v-775.872c0.026-7.659-2.236-15.151-6.498-21.538s-10.33-11.379-17.446-14.345c-4.821-1.899-9.958-2.889-15.147-2.91-10.381 0.043-20.352 4.036-27.857 11.153l-390.926 387.934c-7.341 7.356-11.459 17.289-11.459 27.644 0 10.351 4.118 20.284 11.459 27.639l390.926 387.935c5.653 5.263 12.693 8.83 20.301 10.289 7.612 1.459 15.484 0.75 22.703-2.045 7.117-2.968 13.184-7.959 17.446-14.345s6.524-13.88 6.498-21.539v0z" />
<glyph unicode="&#xe908;" glyph-name="carret-right" d="M713.873 420.42l-390.927-387.934c-7.504-7.117-17.473-11.11-27.854-11.153-5.188 0.021-10.326 1.011-15.148 2.91-7.115 2.965-13.185 7.957-17.446 14.345s-6.522 13.879-6.498 21.538v775.872c-0.024 7.659 2.237 15.153 6.498 21.539s10.331 11.377 17.446 14.345c7.221 2.795 15.092 3.504 22.702 2.045s14.648-5.026 20.3-10.289l390.927-387.935c7.343-7.356 11.46-17.289 11.46-27.639 0-10.355-4.117-20.288-11.46-27.644v0z" />
<glyph unicode="&#xe909;" glyph-name="carret-up" d="M935.881 215.945c-2.965-7.117-7.957-13.184-14.345-17.446s-13.884-6.524-21.542-6.498h-775.986c-7.66-0.026-15.156 2.236-21.542 6.498s-11.379 10.33-14.347 17.446c-2.795 7.219-3.504 15.091-2.045 22.703 1.459 7.607 5.027 14.647 10.29 20.301l387.993 390.926c7.356 7.341 17.289 11.459 27.644 11.459s20.288-4.118 27.644-11.459l387.994-390.926c5.265-5.653 8.832-12.693 10.291-20.301 1.459-7.612 0.747-15.484-2.048-22.703z" />
<glyph unicode="&#xe90a;" glyph-name="chevron-down" d="M512.017 207.996c-6.306-0.009-12.548 1.229-18.377 3.644-5.824 2.411-11.115 5.952-15.565 10.415l-320 320.001c-8.881 9.027-13.835 21.196-13.783 33.859s5.104 24.792 14.058 33.745c8.954 8.954 21.083 14.007 33.746 14.059s24.832-4.902 33.859-13.783l286.062-286.057 286.059 286.057c9.024 8.881 21.197 13.835 33.86 13.783 12.659-0.052 24.789-5.105 33.745-14.059 8.951-8.954 14.007-21.083 14.059-33.745s-4.902-24.832-13.786-33.859l-320-320.001c-4.45-4.463-9.741-8.004-15.565-10.415-5.824-2.415-12.070-3.652-18.372-3.644v0z" />
<glyph unicode="&#xe90b;" glyph-name="chevron-left" d="M639.996 79.996c-6.302-0.009-12.548 1.229-18.372 3.644-5.824 2.411-11.115 5.952-15.565 10.415l-320.001 320c-9.001 9.003-14.058 21.21-14.058 33.941 0 12.727 5.057 24.939 14.058 33.941l320.001 319.998c9.024 8.881 21.197 13.835 33.86 13.783 12.659-0.052 24.789-5.105 33.745-14.059 8.951-8.954 14.007-21.083 14.059-33.745s-4.902-24.832-13.786-33.859l-286.055-286.060 286.055-286.059c6.711-6.716 11.285-15.266 13.137-24.58 1.852-9.31 0.9-18.961-2.731-27.729-3.635-8.772-9.788-16.269-17.681-21.542s-17.173-8.090-26.667-8.090v0z" />
<glyph unicode="&#xe90c;" glyph-name="chevron-right" d="M383.998 79.996c-9.493 0-18.773 2.816-26.666 8.090s-14.045 12.77-17.678 21.542c-3.633 8.768-4.583 18.419-2.732 27.729 1.852 9.314 6.423 17.865 13.136 24.58l286.055 286.059-286.055 286.060c-8.881 9.027-13.835 21.196-13.783 33.859s5.104 24.792 14.058 33.745c8.954 8.954 21.083 14.007 33.746 14.059s24.832-4.902 33.859-13.783l319.999-319.998c9.003-9.003 14.059-21.214 14.059-33.941 0-12.732-5.056-24.939-14.059-33.941l-319.999-320c-4.452-4.463-9.743-8.004-15.567-10.415-5.825-2.415-12.069-3.652-18.373-3.644v0z" />
<glyph unicode="&#xe90d;" glyph-name="chevron-up" d="M832.017 272.004c-6.306-0.009-12.553 1.229-18.377 3.639-5.824 2.415-11.115 5.956-15.565 10.419l-286.059 286.055-286.062-286.055c-9.027-8.883-21.197-13.837-33.859-13.786s-24.792 5.107-33.746 14.059c-8.954 8.956-14.007 21.086-14.058 33.745-0.052 12.663 4.902 24.836 13.783 33.86l320 320.001c9.003 9.001 21.21 14.058 33.941 14.058 12.727 0 24.939-5.057 33.937-14.058l320-320.001c6.711-6.711 11.285-15.266 13.137-24.576s0.9-18.961-2.731-27.733c-3.635-8.768-9.788-16.265-17.681-21.538-7.889-5.278-17.169-8.090-26.662-8.090v0z" />
<glyph unicode="&#xe90e;" glyph-name="location" d="M502.455 21.333c-59.87 51.063-115.36 107.046-165.895 167.364-75.837 90.577-165.894 225.472-165.894 354.016-0.033 65.648 19.41 129.831 55.868 184.425s88.292 97.146 148.943 122.27c60.649 25.124 127.392 31.691 191.776 18.869s123.516-44.454 169.916-90.896c30.891-30.755 55.377-67.331 72.038-107.612 16.666-40.281 25.173-83.466 25.033-127.057 0-128.544-90.057-263.439-165.892-354.016-50.534-60.318-106.027-116.301-165.892-167.364zM502.455 684.908c-37.713 0-73.882-14.981-100.548-41.648s-41.648-62.834-41.648-100.547c0-37.711 14.981-73.879 41.648-100.546s62.835-41.647 100.548-41.647c37.709 0 73.877 14.98 100.544 41.647s41.647 62.835 41.647 100.546c0 37.712-14.98 73.88-41.647 100.547s-62.835 41.648-100.544 41.648z" />
<glyph unicode="&#xe90f;" glyph-name="close" d="M833.954 193.937c8.883-9.028 13.837-21.197 13.786-33.86s-5.107-24.794-14.059-33.745c-8.956-8.956-21.086-14.007-33.745-14.059-12.663-0.051-24.836 4.902-33.86 13.781l-254.059 254.059-254.062-254.059c-9.027-8.879-21.197-13.833-33.859-13.781s-24.792 5.103-33.746 14.059c-8.954 8.951-14.007 21.082-14.058 33.745s4.902 24.832 13.783 33.86l254.055 254.059-254.055 254.060c-8.881 9.027-13.835 21.196-13.783 33.859s5.104 24.792 14.058 33.745c8.954 8.954 21.083 14.007 33.746 14.059s24.832-4.902 33.859-13.783l254.062-254.057 254.059 254.057c9.024 8.881 21.197 13.835 33.86 13.783 12.659-0.052 24.789-5.105 33.745-14.059 8.951-8.954 14.007-21.083 14.059-33.745s-4.902-24.832-13.786-33.859l-254.054-254.060 254.054-254.059z" />
<glyph unicode="&#xe910;" glyph-name="emoji" d="M853.333 448c0 90.527-35.964 177.347-99.972 241.359-64.013 64.013-150.835 99.974-241.361 99.974-90.527 0-177.347-35.962-241.359-99.974s-99.974-150.832-99.974-241.359c0-90.526 35.962-177.348 99.974-241.361 64.012-64.009 150.832-99.972 241.359-99.972 90.526 0 177.348 35.964 241.361 99.972 64.009 64.013 99.972 150.835 99.972 241.361zM938.667 448c0-113.161-44.954-221.683-124.966-301.7-80.017-80.013-188.54-124.966-301.7-124.966-56.030 0-111.513 11.038-163.278 32.478-51.766 21.444-98.801 52.868-138.421 92.489-80.015 80.017-124.968 188.54-124.968 301.7 0 113.159 44.952 221.683 124.968 301.699s188.54 124.968 301.699 124.968c56.030 0 111.514-11.036 163.277-32.478 51.767-21.442 98.803-52.87 138.423-92.49s71.044-86.655 92.489-138.421c21.44-51.765 32.478-107.248 32.478-163.278zM426.667 554.667c0-34.133-29.867-64-64-64s-64 29.867-64 64c0 34.133 29.867 64 64 64s64-29.867 64-64zM725.333 554.667c0-34.133-29.867-64-64-64s-64 29.867-64 64c0 34.133 29.867 64 64 64s64-29.867 64-64zM512 224.853c-74.667 0-140.373 31.147-178.773 77.227l60.587 60.587c19.2-30.72 64.853-52.48 118.187-52.48s98.987 21.76 118.187 52.48l60.587-60.587c-38.4-46.080-104.107-77.227-178.773-77.227z" />
<glyph unicode="&#xe911;" glyph-name="env" d="M85.335 476.361c-0.278 102.263 38.981 200.692 109.606 274.799s167.173 118.185 269.546 123.055c102.374 4.871 202.692-29.839 280.064-96.905s125.837-161.321 135.313-263.143c-19.482 5.252-39.159 9.741-58.995 13.453-11.746 77.233-49.796 148.073-107.75 200.599-5.743-10.217-13.252-23.103-21.845-36.783-19.23-30.652-46.818-70.386-74.411-90.991-0.947-0.649-1.805-1.411-2.56-2.271 0-1.533 0.567-5.733 4.834-15.326 1.822-4.144 4.437-9.366 7.394-15.326 5.12-10.331 11.494-23.046 17.242-37.181-19.046-2.914-37.867-7.142-56.324-12.655-2.957 6.37-6.029 12.693-9.216 18.957-3.93 7.701-7.667 15.499-11.209 23.386-5.005 11.352-10.466 26.111-9.498 41.777 1.135 18.164 10.351 32.922 25.203 44.048 18.031 13.51 40.73 44.445 60.301 75.721 9.446 14.929 17.468 28.949 23.155 39.166l1.31 2.384c-54.903 35.165-118.797 53.807-184.043 53.698h-2.731c5.18-10.217 10.867-22.421 15.987-35.988 13.879-36.669 26.398-90.366 4.041-137.82-20.54-43.707-55.983-55.060-82.492-61.871l-3.811-0.965c-25.772-6.641-36.41-9.366-44.147-21.002-7.168-10.898-5.859-24.578 2.276-51.087l1.877-5.961c3.243-10.33 7.111-22.592 9.103-34.172 2.503-14.417 3.186-32.465-5.917-49.95-7.755-15.62-20.099-28.51-35.386-36.954-11.855-6.003-24.616-10.031-37.775-11.917l-3.869-0.683c-20.367-3.575-30.721-5.393-40.677-16.009-7.794-8.341-12.629-22.818-15.417-43.819-1.137-8.572-1.877-17.088-2.56-25.886l-0.398-4.655c-0.621-10.103-1.933-20.156-3.925-30.084l-1.423-6.242c35.194-36.983 78.255-65.613 126.012-83.785-10.696-15.893-20.594-32.354-29.811-49.267-73.087 29.918-135.605 80.849-179.601 146.317s-67.483 142.511-67.473 221.333zM142.225 476.361c-0.102-59.187 15.334-117.367 44.773-168.755l1.024 8.516c3.072 22.989 9.615 52.958 30.266 75.038 23.61 25.203 52.51 29.973 70.999 32.981l5.234 0.909c7.101 0.819 14.020 2.795 20.48 5.845 5.354 3.081 9.596 7.77 12.118 13.397 0.853 1.532 1.877 5.107 0.341 13.905-1.762 8.674-4.081 17.225-6.941 25.6-0.803 2.534-1.599 5.069-2.389 7.607-7.396 24.124-18.944 63.29 4.608 98.994 20.48 31.049 53.42 38.939 74.754 44.105l6.486 1.589c22.585 5.847 35.954 11.353 45.226 31.049 12.122 25.657 6.827 60.282-5.743 93.658-6.618 17.358-14.805 34.078-24.464 49.952-77.886-14.971-148.116-56.538-198.624-117.56s-78.139-137.689-78.148-216.832zM934.421 434.359c-2.539 4.122-6.097 7.526-10.33 9.89-4.228 2.364-8.998 3.61-13.85 3.618h-0.452c-2.236 0.273-4.459 0.653-6.656 1.135-5.709 1.353-11.379 2.846-17.011 4.484l-5.406 1.476c-15.825 4.578-31.782 8.704-47.842 12.373-55.044 12.638-111.881 15.578-167.94 8.687-68.382-8.516-120.666-31.676-156.335-64.823-35.84-33.434-53.478-75.895-53.478-119.202 0-10.389 0.798-20.267 2.163-29.517 59.733 51.994 133.406 94.054 214.818 126.579 3.469 1.387 7.181 2.078 10.918 2.035 3.738-0.047 7.428-0.823 10.867-2.291 3.435-1.468 6.549-3.597 9.161-6.263 2.611-2.671 4.672-5.824 6.059-9.289 1.391-3.46 2.082-7.164 2.039-10.893s-0.823-7.415-2.295-10.842c-1.472-3.43-3.605-6.537-6.281-9.143-2.675-2.603-5.837-4.659-9.306-6.046-45.342-18.108-87.27-38.997-125.047-62.554-93.982-54.72-152.521-124.992-195.416-210.59-1.808-3.345-2.924-7.019-3.282-10.803s0.049-7.599 1.198-11.226c1.149-3.622 3.015-6.98 5.489-9.869 2.473-2.893 5.504-5.257 8.911-6.959 3.407-1.698 7.122-2.697 10.924-2.94 3.802-0.239 7.613 0.286 11.209 1.545 3.595 1.254 6.9 3.221 9.719 5.777s5.095 5.653 6.693 9.101c21.847 43.482 47.959 82.59 82.378 117.389 9.135-16.619 20.275-32.060 33.165-45.978 26.398-28.382 69.009-58.697 129.254-58.697 37.094 0 67.93 9.425 93.188 25.886 25.033 16.235 43.123 38.315 56.661 61.474 20.937 35.759 32.939 78.332 41.813 109.892 2.278 7.949 4.271 15.155 6.204 21.402 9.843 32.013 24.235 60.736 37.547 84.233 6.711 11.695 13.026 21.969 18.492 30.711l0.909 1.476c4.416 6.886 8.55 13.952 12.403 21.171 2.159 4.322 3.183 9.126 2.961 13.956-0.218 4.826-1.668 9.519-4.215 13.632z" />
<glyph unicode="&#xe912;" glyph-name="facebook" d="M575.846 21.333v388.612h126.362l18.782 152.154h-145.143v96.916c0 43.906 11.789 73.967 72.525 73.967h76.962v135.654c-37.444 4.163-75.085 6.174-112.747 6.022-111.693 0-188.379-70.743-188.379-200.612v-111.662h-125.541v-152.153h125.815v-388.898h151.364z" />
<glyph unicode="&#xe913;" glyph-name="fax" d="M334.222 874.667c-28.29 0-55.421-11.238-75.424-31.242s-31.242-47.135-31.242-75.425v-177.778c-37.719 0-73.894-14.984-100.566-41.656s-41.656-62.845-41.656-100.566v-320c0-28.288 11.238-55.42 31.242-75.426 20.004-20.002 47.135-31.241 75.425-31.241h426.667c-23.13 30.746-35.614 68.19-35.554 106.667v355.554c0 40.038 13.227 76.944 35.554 106.668h-320v177.778c0 9.43 3.746 18.474 10.414 25.142s15.712 10.414 25.141 10.414h355.557c9.429 0 18.47-3.746 25.139-10.414s10.415-15.712 10.415-25.142v-110.222c11.52 2.347 23.394 3.555 35.554 3.555h35.558v106.667c0 28.29-11.238 55.421-31.245 75.425-20.002 20.004-47.134 31.242-75.422 31.242h-355.557zM263.111 376.887c-9.43 0-18.474 3.746-25.142 10.415s-10.414 15.714-10.414 25.143c0 9.429 3.746 18.47 10.414 25.139s15.712 10.415 25.142 10.415c9.43 0 18.473-3.746 25.141-10.415s10.414-15.71 10.414-25.139c0-9.429-3.746-18.475-10.414-25.143s-15.712-10.415-25.141-10.415zM263.111 234.667c-9.43 0-18.474 3.746-25.142 10.415s-10.414 15.71-10.414 25.139c0 9.429 3.746 18.475 10.414 25.143s15.712 10.415 25.142 10.415c9.43 0 18.473-3.746 25.141-10.415s10.414-15.714 10.414-25.143c0-9.429-3.746-18.47-10.414-25.139s-15.712-10.415-25.141-10.415zM440.887 412.446c0-9.429-3.746-18.475-10.411-25.143-6.67-6.669-15.714-10.415-25.143-10.415s-18.474 3.746-25.142 10.415c-6.668 6.669-10.414 15.714-10.414 25.143s3.746 18.47 10.414 25.139c6.668 6.669 15.712 10.415 25.142 10.415s18.473-3.746 25.143-10.415c6.665-6.669 10.411-15.71 10.411-25.139zM405.333 234.667c-9.43 0-18.474 3.746-25.142 10.415s-10.414 15.71-10.414 25.139c0 9.429 3.746 18.475 10.414 25.143s15.712 10.415 25.142 10.415c9.43 0 18.473-3.746 25.143-10.415 6.665-6.669 10.411-15.714 10.411-25.143s-3.746-18.47-10.411-25.139c-6.67-6.669-15.714-10.415-25.143-10.415zM654.221 483.554c0 28.292 11.238 55.422 31.245 75.426 20.002 20.004 47.134 31.242 75.422 31.242h71.113c28.288 0 55.42-11.238 75.426-31.242 20.002-20.004 31.241-47.134 31.241-75.426v-355.554c0-28.288-11.238-55.42-31.241-75.426-20.006-20.002-47.138-31.241-75.426-31.241h-71.113c-28.288 0-55.42 11.238-75.422 31.241-20.006 20.006-31.245 47.138-31.245 75.426v355.554z" />
<glyph unicode="&#xe914;" glyph-name="filter" d="M464.593 149.333c-13.431 0-24.683 4.437-33.754 13.312-9.103 8.845-13.654 19.814-13.654 32.909 0 13.099 4.551 24.068 13.654 32.913 9.071 8.875 20.322 13.312 33.754 13.312h94.814c13.431 0 24.7-4.437 33.801-13.312 9.071-8.845 13.606-19.814 13.606-32.913 0-13.094-4.535-24.064-13.606-32.909-9.101-8.875-20.369-13.312-33.801-13.312h-94.814zM132.741 611.555c-13.432 0-24.684 4.422-33.754 13.266-9.102 8.875-13.653 19.86-13.653 32.957s4.551 24.081 13.653 32.956c9.071 8.844 20.322 13.266 33.754 13.266h758.519c13.431 0 24.683-4.422 33.754-13.266 9.101-8.875 13.653-19.86 13.653-32.956s-4.553-24.082-13.653-32.957c-9.071-8.844-20.322-13.266-33.754-13.266h-758.519zM274.963 380.446c-13.432 0-24.699 4.437-33.801 13.312-9.071 8.841-13.606 19.814-13.606 32.909s4.535 24.081 13.606 32.956c9.103 8.845 20.369 13.265 33.801 13.265h474.076c13.431 0 24.683-4.42 33.754-13.265 9.101-8.875 13.653-19.861 13.653-32.956s-4.553-24.068-13.653-32.909c-9.071-8.875-20.322-13.312-33.754-13.312h-474.076z" />
<glyph unicode="&#xe915;" glyph-name="hamburger" d="M85.333 740.571c0 26.931 21.225 48.762 47.407 48.762h758.519c26.18 0 47.407-21.831 47.407-48.762s-21.227-48.762-47.407-48.762h-758.519c-26.182 0-47.407 21.831-47.407 48.762zM85.333 448c0 26.931 21.225 48.764 47.407 48.764h758.519c26.18 0 47.407-21.833 47.407-48.764s-21.227-48.764-47.407-48.764h-758.519c-26.182 0-47.407 21.833-47.407 48.764zM85.333 155.43c0 26.927 21.225 48.759 47.407 48.759h758.519c26.18 0 47.407-21.833 47.407-48.759 0-26.931-21.227-48.764-47.407-48.764h-758.519c-26.182 0-47.407 21.833-47.407 48.764z" />
<glyph unicode="&#xe916;" glyph-name="health-and-safety" d="M914.095 299.853c-1.105 0.154-2.193 0.384-3.264 0.691-42.458 9.267-77.201 31.915-107.738 61.764-12.228 11.959-19.405 12.045-31.637-0.179-13.282-13.073-27.857-24.772-43.507-34.923-4.873-3.209-7.441-3.051-11.558 1.425-25.822 27.742-56.849 50.176-91.328 66.035-12.719 5.973-25.975 10.628-39.236 15.484 0.269 0.649 0.606 1.267 1.007 1.847 43.328 45.346 70.874 97.152 66.935 161.855-0.243 4.054 1.745 5.677 4.855 7.528 18.799 11.159 28.591 27.66 27.831 49.579-0.738 21.56-11.49 37.173-30.583 47.040-1.455 0.631-2.709 1.647-3.622 2.939s-1.455 2.809-1.566 4.386c-13.926 83.48-60.719 139.649-141.005 167.849-1.57 0.368-3.025 1.112-4.241 2.168s-2.155 2.391-2.735 3.89c-4.203 10.245-12.45 15.323-23.561 15.368-19.529 0.089-39.044 0.089-58.554 0-4.774 0.216-9.504-0.994-13.583-3.474s-7.321-6.118-9.311-10.447c-0.629-1.481-1.585-2.803-2.796-3.867s-2.647-1.843-4.201-2.28c-81.603-27.039-130.229-82.612-145.029-167.178-0.218-2.246-1.031-4.394-2.354-6.225s-3.111-3.28-5.18-4.198c-8.47-4.453-15.608-11.057-20.69-19.143s-7.93-17.367-8.252-26.902c-0.322-9.535 1.891-18.986 6.416-27.395s11.201-15.476 19.351-20.486c5.701-3.584 7.959-7.105 7.534-13.673-3.264-49.621 14.756-92.233 43.954-131.098 7.537-9.711 15.605-18.995 24.168-27.819-1.99-0.913-3.219-1.579-4.516-2.027-134.477-47.283-198.060-149.649-219.769-283.307-5.522-33.988 12.162-56.171 46.793-60.535 37.888-4.8 76.116-3.098 114.284-2.261h170.871c2.446-0.188 4.919-0.192 7.362-0.192 95.887-0.043 191.785-0.013 287.691 0.090 2.581 0.141 5.163-0.311 7.543-1.323s4.497-2.556 6.182-4.51c14.754-15.748 31.411-28.915 52.693-35.017h15.070c15.415 4.318 29.5 12.403 40.981 23.518 63.603 62.366 103.177 135.556 102.865 226.85-0.068 18.466-2.505 27.106-24.572 28.151zM505.702 820.188c60.518-25.014 97.988-67.709 110.891-131.208 0.981-4.878-0.337-5.546-4.676-5.524-26.714 0.156-53.453 0.198-80.171-0.044-4.493-0.047-6.238 1.76-7.667 5.544-13.193 34.814-21.239 91.028-18.377 131.232zM410.662 689.047c15.806 46.438 17.17 94.701 17.37 143.035 0.021 7.172 1.297 10.29 9.301 9.533 8.614-0.719 17.271-0.733 25.89-0.044 6.729 0.468 8.922-1.183 8.806-8.399-0.87-30.809 0.759-61.637 4.877-92.184 2.325-17.303 6.332-34.339 11.959-50.871 2.146-6.147 0.29-6.838-5.163-6.682-11.136 0.312-22.293 0.087-33.446 0.087-11.695 0-23.411 0.134-35.102-0.065-4.36-0.069-6.139 0.713-4.494 5.591zM279.605 690.427c14.375 63.232 51.6 106.775 112.612 129.827 0.856 0.209 1.734 0.322 2.615 0.334-0.313-44.167-3.286-87.754-18.243-129.716-2.012-5.613-4.561-7.595-10.664-7.508-26.739 0.381-53.523 0.314-80.284 0.047-5.701-0.067-7.311 1.381-6.036 7.016zM242.604 630.314c0.168 4.604 1.88 9.019 4.863 12.54s7.064 5.943 11.592 6.882c3.825 0.715 7.712 1.044 11.603 0.98 118.089 0.045 236.162 0.045 354.225 0 3.891 0.075 7.787-0.224 11.622-0.891 4.932-1.046 9.335-3.793 12.433-7.757 3.093-3.964 4.689-8.89 4.497-13.909s-2.159-9.809-5.551-13.526c-3.392-3.717-7.991-6.121-12.988-6.79-3.601-0.356-7.223-0.49-10.842-0.401-58.778-0.022-117.564-0.030-176.354-0.022-59.871 0-119.757 0.007-179.659 0.022-16.544 0.020-26.113 8.773-25.442 22.872zM279.113 525.542c-4.427 14.278-3.532 29.111-3.711 43.811-0.045 4.032 1.364 5.257 5.321 5.165 9.479-0.243 18.959-0.087 28.438-0.087h138.813c54.639 0 109.282-0.111 163.9 0.156 6.571 0.022 8.742-1.069 8.986-8.352 1.813-55.37-24.367-97.956-61.973-134.995-26.782-26.394-58.061-45.547-95.863-52.339-17.685-3.063-35.878-1.050-52.451 5.811-66.020 26.283-110.443 72.815-131.459 140.83zM554.103 286.891c-2.103-2.782-3.465-2.692-5.679-0.29-20.1 21.892-40.265 43.725-59.29 64.346 7.13 2.543 19.068 6.106 30.046 11.981 7.582 4.032 15.851 7.33 22.315 12.745 9.476 7.927 18.624 8.704 29.666 4.297 4.471-1.801 6.665-3.678 7.287-8.35 4.113-31.761-5.342-59.558-24.346-84.727zM407.107 350.814c-19.048-20.531-39.303-42.27-59.447-64.119-2.75-2.987-4.136-2.074-6.237 0.755-18.668 25.28-28.594 52.898-23.743 84.791 0.093 1.719 0.733 3.358 1.827 4.689s2.583 2.278 4.254 2.705c11.022 4.343 20.188 4.032 30.54-3.763 16.879-12.698 36.71-20.425 52.807-25.058zM425.96 95.083c-1.757 0-3.528 0.026-5.296 0h-173.776c-28.983 0.073-57.978-0.017-86.968 0.021-8.642-0.222-17.277 0.623-25.711 2.517-11.76 3.008-15.046 7.194-15.18 19.401-0.179 16.303 4.248 31.825 8.518 47.305 16.119 58.487 42.612 111.185 87.505 153.417 20.085 18.91 43.113 34.458 68.189 46.033-0.332-10.522 0.41-21.052 2.213-31.424 5.232-29.909 20.568-54.703 39.549-77.687 13.012-15.791 20.3-16.346 34.743-2.338 27.164 26.351 54.551 52.476 81.312 79.223 5.837 5.837 8.516 5.103 13.926-0.265 27.883-27.575 56.209-54.724 84.446-81.967 8.828-8.529 18.419-9.374 25.617-1.314 18.825 21.073 34.633 44.036 42.479 71.676 3.874 14.148 5.555 28.8 4.988 43.452 23.539-8.819 61.167-35.767 76.975-54.921-10.812-4.48-22.182-7.462-33.805-8.866-14.69-1.83-19.162-7.13-19.516-21.76-1.971-61.197 16.068-121.378 51.396-171.482 2.283-3.315 4.382-6.746 7.134-11.021h-268.739zM904.862 257.894c-1.609-53.811-20.881-100.271-51.49-142.613-13.367-18.509-27.631-36.279-45.606-50.688-16.546-13.252-24.883-14.144-40.354-0.115-53.346 48.38-89.472 106.308-96.538 179.541-0.717 7.441-3.511 16.26-0.58 22.050 3.038 6.012 13.299 4.719 20.254 7.061 33.289 11.277 63.949 29.133 90.142 52.493 4.941 4.348 7.445 5.303 13.082 0.337 30.831-27.196 65.527-47.663 106.15-56.772 8.653-1.941 3.891-8.021 4.941-11.294zM845.5 231.582c-7.761 6.771-16.969 5.436-25.532-3.874-9.591-10.423-19.14-20.907-28.642-31.45-12.629-13.965-12.608-13.986-27.52-3.23-0.222 0.158-0.422 0.354-0.649 0.512-8.986 6.281-18.624 5.278-24.435-2.492-5.611-7.505-3.755-17.442 4.74-24.098 8.316-6.507 16.832-12.766 25.195-19.2 1.775-1.707 3.895-3.004 6.221-3.81 2.33-0.802 4.804-1.092 7.253-0.849s4.817 1.015 6.938 2.261c2.121 1.246 3.947 2.94 5.346 4.958 16.811 18.53 33.711 36.996 50.458 55.59 8.26 9.156 8.393 18.91 0.627 25.681z" />
<glyph unicode="&#xe917;" glyph-name="instagram" d="M648.533 448c0-27.004-8.009-53.402-23.010-75.853-15.002-22.455-36.326-39.953-61.274-50.287s-52.399-13.039-78.886-7.77c-26.483 5.269-50.812 18.27-69.907 37.367-19.095 19.093-32.098 43.422-37.366 69.905-5.268 26.487-2.565 53.939 7.77 78.886s27.834 46.271 50.287 61.274c22.451 15.002 48.849 23.010 75.853 23.010 36.177-0.113 70.839-14.534 96.418-40.114 25.583-25.58 40.004-60.242 40.115-96.419v0zM938.667 635.733v-375.467c0-63.369-25.173-124.143-69.982-168.951s-105.583-69.982-168.951-69.982h-375.467c-63.369 0-124.143 25.173-168.951 69.982s-69.982 105.583-69.982 168.951v375.467c0 63.369 25.173 124.143 69.982 168.951s105.583 69.982 168.951 69.982h375.467c63.369 0 124.143-25.173 168.951-69.982s69.982-105.583 69.982-168.951v0zM716.8 448c0 40.508-12.011 80.102-34.513 113.781-22.507 33.679-54.49 59.929-91.913 75.43s-78.601 19.557-118.327 11.654c-39.727-7.902-76.221-27.408-104.862-56.049s-48.147-65.135-56.049-104.862c-7.902-39.727-3.846-80.905 11.654-118.327s41.751-69.406 75.43-91.913c33.679-22.502 73.273-34.513 113.781-34.513 54.315 0 106.406 21.577 144.815 59.985s59.985 90.5 59.985 144.815zM785.067 669.867c0 10.127-3.004 20.025-8.627 28.445-5.628 8.42-13.623 14.982-22.98 18.858s-19.648 4.889-29.581 2.913c-9.933-1.975-19.055-6.852-26.214-14.012-7.164-7.16-12.036-16.283-14.012-26.215s-0.964-20.227 2.91-29.582c3.878-9.356 10.441-17.352 18.859-22.978 8.422-5.626 18.321-8.629 28.446-8.629 13.581 0 26.603 5.394 36.203 14.996 9.604 9.602 14.997 22.625 14.997 36.204z" />
<glyph unicode="&#xe918;" glyph-name="mail" d="M512 266.667c-27.55 0-55.1 9.037-78.601 27.349l-348.066 270.651v-378c0-44.169 35.817-80 80-80h693.333c44.181 0 80 35.819 80 80v378l-347.998-270.834c-23.501-18.167-51.17-27.166-78.669-27.166zM112.483 611.167l353.667-275.167c26.982-21.001 64.781-21.001 91.767 0l353.664 275.167c15.586 13.333 27.085 33.833 27.085 55.5 0 44.183-35.831 80-80 80h-693.333c-44.183 0-80-35.817-80-80 0-21.667 10.017-42.167 27.15-55.5z" />
<glyph unicode="&#xe919;" glyph-name="quality-policy" d="M901.658 441.505c-1.053 2.207-1.6 4.621-1.6 7.067 0 2.445 0.547 4.859 1.6 7.066 10.272 24.224 20.329 48.518 30.173 72.883 7.94 17.228 9.009 36.836 2.989 54.824s-18.674 33-35.38 41.971c-25.606 15.286-50.785 30.656-76.306 45.642-2.534 1.272-4.739 3.113-6.442 5.38s-2.857 4.897-3.374 7.686c-5.548 24.593-11.437 49.101-17.882 73.481-4.146 17.45-14.515 32.788-29.162 43.133-14.646 10.345-32.563 14.988-50.387 13.056-29.618-2.349-59.235-4.27-88.81-7.045-2.858-0.46-5.786-0.225-8.535 0.684-2.712 0.851-5.194 2.312-7.255 4.269-10.029 9.564-20.827 18.317-31.026 27.753-15.51 17.326-35.84 29.622-58.382 35.31h-23.301c-13.8-1.697-26.769-7.515-37.215-16.695-13.059-11.229-26.417-22.16-38.623-34.158-4.744-5.471-10.813-9.631-17.624-12.083-6.824-2.488-14.168-3.194-21.339-2.049-25.606 3.203-51.213 3.928-76.818 6.106-16.544 1.343-33.076-2.711-47.124-11.555s-24.855-22.002-30.803-37.504c-10.029-28.521-18.351-57.641-27.356-86.547-0.765-2.642-2.040-5.107-3.756-7.258-1.713-2.136-3.849-3.896-6.273-5.166-22.149-12.81-43.786-26.301-65.936-39.026-10.665-5.361-19.894-13.197-26.917-22.852s-11.636-20.851-13.455-32.654v-26.685c2.485-13.051 6.689-25.714 12.504-37.659 7.042-17.079 14.126-34.499 21.338-51.62 1.349-2.706 2.051-5.687 2.051-8.71s-0.702-6.006-2.051-8.71c-4.165-8.796-7.869-17.802-11.096-26.985-10.283-20.543-17.926-42.307-22.747-64.771v-21.647c3.204-13.932 9.652-26.908 18.82-37.873 9.155-10.973 20.743-19.657 33.843-25.362 21.723-11.571 42.378-25.19 63.716-37.487 2.266-1.239 4.221-2.977 5.719-5.082 1.494-2.095 2.486-4.506 2.902-7.045 5.207-22.415 10.67-44.746 16.132-67.076 1.54-9.993 5.066-19.575 10.371-28.18 5.311-8.611 12.291-16.069 20.53-21.935s17.568-10.022 27.439-12.223c9.816-2.2 19.972-2.418 29.874-0.64 27.654 2.477 55.479 4.27 83.005 6.618 2.281 0.301 4.602 0.082 6.785-0.64 2.214-0.681 4.233-1.882 5.889-3.501 16.474-14.86 33.289-29.418 49.975-44.064 13.828-13.188 32.186-20.567 51.29-20.614s37.498 7.24 51.391 20.358c16.772 14.602 33.501 29.204 50.060 44.020 1.603 1.642 3.558 2.898 5.719 3.672 2.175 0.763 4.494 1.027 6.785 0.768 31.837-2.561 63.589-5.636 95.511-6.874 16.946-0.905 33.67 4.187 47.24 14.382 13.571 10.196 23.119 24.845 26.975 41.38 6.573 24.936 12.334 50.040 18.309 75.146 0.388 2.26 1.277 4.406 2.602 6.277 1.422 1.701 3.2 3.072 5.207 4.013 25.905 15.158 51.212 30.614 76.818 46.071 17.377 8.969 30.54 24.407 36.653 42.989 6.115 18.583 4.691 38.824-3.963 56.366-9.517 24.082-19.162 47.907-29.276 71.603zM850.744 433.692c11.779-27.241 22.79-54.652 34.141-82.021 2.054-3.277 3.365-6.964 3.841-10.802 0.433-3.839 0.040-7.726-1.152-11.401-1.224-3.674-3.25-7.028-5.933-9.82-2.651-2.812-5.905-4.987-9.517-6.362-28.977-17.421-57.912-34.84-87.145-52.005-4.257-2.301-7.959-5.509-10.842-9.396s-4.879-8.361-5.846-13.105c-6.273-27.839-13.187-55.506-19.93-83.259-0.346-3.494-1.407-6.881-3.116-9.948-1.705-3.054-4.031-5.716-6.829-7.814-2.799-2.118-6.011-3.631-9.427-4.44-3.418-0.808-6.964-0.896-10.417-0.256-32.648 2.221-65.339 4.696-98.157 7.729-5.733 0.867-11.589 0.413-17.121-1.325s-10.593-4.718-14.801-8.709c-18.821-17.079-38.409-33.859-57.444-50.682-2.391-2.748-5.341-4.954-8.653-6.47s-6.909-2.31-10.551-2.326c-3.645-0.004-7.249 0.78-10.564 2.298s-6.262 3.735-8.641 6.499c-20.143 17.505-40.243 35.012-60.131 52.773-3.305 3.172-7.265 5.581-11.601 7.057-4.335 1.475-8.942 1.981-13.494 1.484-31.78-2.847-63.603-5.408-95.468-7.686-6.586-1.148-13.34-0.856-19.803 0.855-4.421 1.693-8.311 4.539-11.267 8.241-2.95 3.707-4.878 8.123-5.59 12.809-6.615 27.795-13.614 55.506-19.887 83.259-0.966 4.891-2.991 9.51-5.933 13.535-2.936 4.012-6.726 7.323-11.096 9.692-28.721 16.78-57.143 34.157-85.695 50.98-3.79 1.321-7.232 3.482-10.070 6.321s-4.997 6.284-6.318 10.075c-1.289 3.802-1.697 7.845-1.194 11.827 0.526 3.999 1.988 7.817 4.268 11.144 11.181 27.155 22.149 54.354 33.714 81.125 2.212 4.759 3.334 9.952 3.287 15.2-0.037 5.12-1.172 10.172-3.329 14.815-11.48 26.729-22.319 53.714-33.416 80.527-2.255 3.315-3.724 7.103-4.292 11.072-0.568 3.971-0.221 8.018 1.015 11.834s3.327 7.297 6.113 10.18 6.196 5.089 9.966 6.451c25.606 15.244 51.213 30.742 77.203 45.772 4.358 2.382 8.179 5.637 11.223 9.564 3.057 3.91 5.293 8.398 6.573 13.193 8.535 28.692 17.754 57.129 26.715 85.65 7.085 22.801 12.804 26.685 40.031 25.106 29.234-2.22 61.925-4.483 94.529-7.301 4.445-0.562 8.96-0.138 13.224 1.242s8.17 3.681 11.443 6.743c19.661 17.563 39.434 35.026 59.322 52.389 2.409 2.825 5.411 5.084 8.791 6.618 3.393 1.53 7.075 2.316 10.797 2.307 3.724-0.108 7.379-1.025 10.712-2.691 3.291-1.599 6.202-3.885 8.535-6.703 19.333-17.079 38.793-34.158 57.998-51.236 3.411-3.263 7.506-5.722 11.987-7.199s9.236-1.935 13.917-1.341c35.165 3.032 70.289 5.594 105.454 8.113 6.607 0.588 13.181-1.44 18.312-5.647s8.407-10.257 9.13-16.854c6.785-28.009 13.656-56.018 20.143-84.070 0.896-4.458 2.778-8.659 5.504-12.297 2.698-3.666 6.166-6.697 10.158-8.881 29.618-17.449 59.092-35.096 88.426-52.945 3.53-1.396 6.706-3.562 9.297-6.339s4.531-6.095 5.682-9.715c1.179-3.603 1.544-7.424 1.068-11.186-0.467-3.762-1.748-7.375-3.756-10.589-11.309-27.411-22.449-54.822-34.141-82.063-2.204-4.673-3.347-9.777-3.347-14.944s1.143-10.271 3.347-14.944l0.042 0.3zM511.807 722.963c-63.766 0.096-125.591-21.942-174.93-62.355-49.339-40.415-83.136-96.701-95.628-159.261s-2.904-127.517 27.128-183.795c30.031-56.278 78.647-100.389 137.556-124.812 58.908-24.421 124.461-27.642 185.477-9.11s113.716 57.667 149.115 110.73c35.397 53.064 51.299 116.769 44.992 180.253s-34.431 122.811-79.575 167.866c-51.496 51.506-121.321 80.453-194.136 80.484zM511.551 222.982c-52.145 0.009-102.673 18.112-142.97 51.222s-67.868 79.176-78.016 130.348c-10.147 51.172-2.241 104.282 22.371 150.275s64.404 82.021 112.596 101.946c48.191 19.924 101.798 22.511 151.683 7.318s92.957-47.224 121.878-90.634c28.92-43.411 41.897-95.512 36.718-147.424-5.179-51.91-28.193-100.419-65.119-137.253-42.241-42.157-99.478-65.821-159.141-65.796zM652.511 503.075c-27.142-27.071-54.241-54.112-81.299-81.125-21.196-21.206-42.391-42.412-63.588-63.617-2.382-3.215-5.482-5.827-9.055-7.626s-7.516-2.737-11.515-2.737c-4 0-7.944 0.938-11.516 2.737s-6.673 4.411-9.055 7.626c-32.064 32.022-64.072 64.045-96.022 96.068-2.76 2.491-4.931 5.564-6.358 8.997-1.426 3.433-2.074 7.14-1.894 10.853s1.183 7.341 2.934 10.62 4.209 6.127 7.196 8.34c3.994 2.961 8.776 4.669 13.741 4.91 4.006-0.035 7.96-0.908 11.608-2.561 3.647-1.669 6.915-4.067 9.603-7.045 24.625-24.806 49.42-49.443 74.086-74.336 4.268-4.483 6.743-5.080 11.523 0 41.396 41.843 83.135 83.345 124.787 125.018 3.069 3.631 7.089 6.337 11.608 7.813 4.517 1.463 9.357 1.61 13.955 0.428 4.512-0.969 8.64-3.241 11.871-6.536 3.232-3.293 5.427-7.465 6.31-11.995 1.015-4.644 0.719-9.477-0.854-13.962-1.503-4.645-4.302-8.763-8.067-11.869z" />
<glyph unicode="&#xe920;" glyph-name="sticky-note-2" d="M843.853 779.852v-426.666h-237.039v-237.039h-426.666v663.705h663.705zM843.853 874.667h-663.705c-52.148 0-94.815-42.667-94.815-94.815v-663.705c0-52.147 42.667-94.814 94.815-94.814h474.073l284.446 284.446v474.073c0 52.148-42.667 94.815-94.814 94.815zM512 353.186h-237.037v94.814h237.037v-94.814zM749.039 542.815h-474.076v94.815h474.076v-94.815z" />
<glyph unicode="&#xe921;" glyph-name="team-members" d="M845.013 247.552c-26.701 26.722-57.899 48.529-92.16 64.427 48.32 39.147 79.147 98.88 79.147 165.867 0 118.185-98.56 215.144-216.747 213.331-116.373-1.813-210.132-96.64-210.132-213.331 0-66.987 30.932-126.72 79.146-165.867-34.27-15.885-65.469-37.696-92.159-64.427-58.24-58.347-91.306-135.36-93.44-217.493-0.029-1.135 0.171-2.27 0.588-3.328 0.416-1.062 1.040-2.027 1.835-2.842s1.745-1.463 2.795-1.907c1.050-0.439 2.177-0.67 3.316-0.67h59.733c4.587 0 8.427 3.627 8.533 8.213 2.027 61.867 27.093 119.787 71.146 163.733 22.545 22.665 49.357 40.631 78.891 52.86 29.534 12.233 61.197 18.483 93.163 18.394 64.96 0 126.080-25.28 172.053-71.253 43.947-43.947 69.009-101.867 71.142-163.733 0.107-4.587 3.947-8.213 8.533-8.213h59.733c1.139 0 2.27 0.23 3.315 0.67 1.050 0.444 2.001 1.092 2.799 1.907 0.794 0.815 1.417 1.779 1.835 2.842 0.414 1.058 0.614 2.193 0.585 3.328-2.133 82.133-35.2 159.147-93.649 217.493zM618.667 341.312c-36.48 0-70.827 14.187-96.533 40-12.902 12.8-23.091 28.066-29.965 44.89-6.869 16.823-10.283 34.859-10.035 53.030 0.32 34.987 14.293 68.798 38.72 93.865 25.6 26.24 59.84 40.853 96.427 41.28 36.16 0.32 71.253-13.76 97.067-39.040 26.453-25.92 40.96-60.585 40.96-97.492 0-36.48-14.187-70.72-40-96.533-12.663-12.727-27.729-22.814-44.314-29.679-16.589-6.865-34.372-10.372-52.326-10.321zM351.468 449.685c-0.96 9.28-1.493 18.667-1.493 28.16 0 16.96 1.6 33.493 4.587 49.6 0.747 3.84-1.28 7.785-4.8 9.385-14.506 6.507-27.84 15.467-39.36 26.773-13.574 13.162-24.256 29.009-31.363 46.529s-10.485 36.331-9.916 55.23c0.96 34.24 14.72 66.773 38.72 91.306 26.347 26.987 61.76 41.706 99.413 41.28 34.026-0.32 66.879-13.44 91.732-36.693 8.427-7.893 15.68-16.64 21.76-26.027 2.133-3.307 6.293-4.693 9.92-3.413 18.773 6.507 38.613 11.093 58.987 13.227 5.973 0.64 9.387 7.040 6.72 12.373-34.667 68.586-105.493 115.946-187.412 117.226-118.293 1.813-216.852-95.146-216.852-213.225 0-66.987 30.826-126.72 79.146-165.865-33.92-15.68-65.173-37.333-92.266-64.427-58.453-58.347-91.52-135.36-93.653-217.6-0.028-1.139 0.172-2.27 0.588-3.332 0.416-1.058 1.040-2.022 1.835-2.842 0.795-0.815 1.746-1.459 2.795-1.903s2.177-0.67 3.316-0.67h59.84c4.587 0 8.427 3.627 8.533 8.213 2.027 61.867 27.093 119.787 71.146 163.733 31.36 31.36 69.76 53.12 111.679 63.68 4.16 1.067 6.933 5.013 6.4 9.28z" />
<glyph unicode="&#xe922;" glyph-name="twitter" d="M929.783 646.908l-117.939-113.711c-23.428-264.064-253.841-469.197-529.162-469.197-56.626 0-103.49 8.687-139.028 25.69-28.509 13.978-40.224 28.71-43.348 33.242-2.585 3.802-4.251 8.111-4.873 12.621-0.623 4.506-0.185 9.092 1.279 13.414 1.464 4.318 3.917 8.265 7.177 11.541s7.241 5.798 11.648 7.381c0.781 0.375 92.945 34.377 152.696 99.733-37.056 25.523-69.625 56.644-96.46 92.177-53.502 70.263-110.129 192.287-76.153 374.375 1.068 5.413 3.628 10.447 7.408 14.569s8.642 7.181 14.071 8.852c5.446 1.725 11.278 1.968 16.857 0.702s10.691-3.992 14.776-7.88c1.172-1.511 131.217-125.422 290.159-165.466v23.044c0.154 23.962 5.188 47.66 14.81 69.741s23.642 42.112 41.267 58.951c17.626 16.838 38.502 30.154 61.449 39.186 22.942 9.032 47.501 13.604 72.273 13.455 32.512-0.449 64.346-9.036 92.407-24.925s51.388-38.539 67.708-65.741h118.72c6.17 0.018 12.203-1.729 17.348-5.024 5.141-3.294 9.161-7.987 11.55-13.488 2.253-5.582 2.825-11.667 1.647-17.55-1.173-5.883-4.045-11.324-8.286-15.694z" />
<glyph unicode="&#xe923;" glyph-name="years" d="M104.937 21.333c-19.51 9.297-23.642 19.546-15.994 39.514 19.529 50.991 39.049 101.982 58.563 152.973 0.849 2.227 1.782 4.412 2.699 6.686 3.040-1.114 3.045-3.699 3.869-5.547 22.638-50.944 54.857-97.267 94.978-136.563 4.779-4.676 5.309-6.234-1.761-8.764-42.682-15.305-85.204-31.036-127.766-46.66-0.945-0.452-1.84-0.998-2.671-1.63l-11.915-0.009zM569.237 188.096c-19.081-7.057-38.033-14.093-57.007-21.073-12.958-4.77-26.027-9.25-38.865-14.302-1.609-0.785-3.426-1.045-5.193-0.742s-3.388 1.152-4.629 2.419c-81.901 66.125-131.651 150.259-147.757 253.111-11.532 73.655-1.397 144.74 27.65 213.415 0.756 1.782 1.541 3.564 2.406 5.295 0.227 0.446 0.812 0.742 1.636 1.452 21.592-21.138 43.193-42.287 64.805-63.445 9.42-9.228 21.39-17.1 27.521-28.092 6.195-11.138 0.35-25.367 0.661-38.269 2.837-116.796 43.605-218.615 124.617-304.708 0.96-1.020 1.963-2.005 2.897-3.038 0.465-0.644 0.887-1.323 1.259-2.022zM260.591 508.245c-5.19-70.942 4.622-139.742 31.174-206.212 26.419-66.138 66.959-122.773 121.285-171.315-28.856-10.615-57.061-19.541-83.91-31.403-16.486-7.287-26.198-3.772-38.429 8.081-53.131 51.503-90.252 111.817-109.791 182.498-1.305 3.644-1.312 7.612-0.020 11.255 26.396 68.574 52.7 137.178 78.912 205.815 0.218 0.448 0.478 0.879 0.778 1.28zM638.447 561.806c-1.015 9.324-2.603 17.768-2.564 26.417 0.145 35.222 24.401 57.663 60.301 55.438 5.943-0.26 11.861-0.924 17.711-1.987 5.606-1.127 6.144 0.933 5.274 5.524-2.317 12.362-3.243 24.804-0.068 37.164 2.534 10.769 8.653 20.409 17.387 27.409 8.738 7 19.601 10.962 30.886 11.266 8.777 0.661 17.609 0.169 26.253-1.461 5.214-1.114 8.179-1.372 6.626 6.059-2.219 9.78-2.633 19.87-1.233 29.794 4.22 26.952 24.090 44.432 52.173 45.519 10.223 0.396 20.237-1.408 31.002-2.624-1.694 14.022-4.373 27.642-1.114 41.419 2.031 9.847 7.036 18.87 14.37 25.896 4.412 4.206 10.24 6.694 16.388 6.997 6.153 0.303 12.203-1.598 17.024-5.349 9.865-7.616 13.12-21.853 5.884-32.108-4.958-7.027-4.809-13.792-3.345-21.269 2.069-10.609 4.877-21.1 4.885-32.026 0.021-23.45-13.521-36.592-37.466-36.467-10.876 0.058-21.303 2.807-31.906 4.542-1.95 0.318-3.878 0.826-5.845 1.007-11.695 1.071-13.615-0.869-11.716-12.288 1.502-9.023 3.716-17.946 4.894-27.005 4.343-33.376-14.417-50.765-48.256-44.994-8.926 1.521-17.788 3.495-26.761 4.608-11.081 1.374-12.847-0.532-11.115-11.11 1.562-9.578 3.712-19.069 5.175-28.66 1.489-9.734 1.139-19.378-3.797-28.352-6.639-12.073-17.711-16.543-30.946-16.993-12.894-0.445-25.19 3.475-37.773 5.335-13.871 2.049-15.411 0.762-13.577-13.084 1.451-10.984 5.005-21.637 5.295-32.819 0.683-27.175-15.718-41.797-43.465-38.477-7.014 0.841-13.978 2.142-20.915 3.49-10.044 1.958-19.294 3.341-29.103-3.089-10.33-6.775-24.469-2.436-31.569 7.36-3.516 4.766-5.197 10.594-4.745 16.456 0.457 5.861 3.012 11.376 7.219 15.57 12.634 12.647 28.638 16.146 45.948 15.311 7.283-0.354 14.532-1.528 22.583-2.417zM491.878 484.356c3.452-0.358 4.535-2.556 6.054-4.045 68.604-67.093 137.19-134.204 205.769-201.323 6.771-6.618 11.337-13.918 9.958-23.573-0.486-4.595-2.308-8.96-5.244-12.574-2.94-3.618-6.869-6.34-11.332-7.842-23.228-8.657-46.635-16.866-69.764-25.771-4.843-1.865-6.733 0.589-9.31 3.017-59.9 55.808-101.013 128.149-117.871 207.394-4.531 21.321-7.292 42.961-8.26 64.717zM912.798 470.989c-11.153 1.796-22.037 4.954-33.438 5.521-58.022 2.88-106.598-18.709-149.619-54.865-5.158-4.339-9.894-9.156-14.955-13.615-11.328-9.967-26.867-9.899-36.693 0.068-9.907 10.039-9.587 25.365 1.207 35.823 42.475 41.156 91.652 70.409 151.462 79.945 29.948 4.774 59.913 4.544 89.318-3.891 5.389-1.429 10.138-4.578 13.491-8.943 3.354-4.369 5.12-9.711 5.018-15.172-0.060-5.316-1.865-10.47-5.146-14.703-3.285-4.233-7.876-7.317-13.090-8.798-2.487-0.597-5.013-1.058-7.556-1.37zM601.489 787.575c-1.246-69.212-29.675-126.156-76.1-175.589-2.684-2.859-5.431-5.659-8.243-8.402-11.29-10.992-26.526-11.627-37.124-1.588-10.368 9.825-10.24 25.457 0.614 36.4 17.856 17.458 33.092 37.308 45.248 58.955 20.279 37.265 29.21 76.561 21.773 118.705-0.576 3.268-1.472 6.482-2.227 9.718-1.634 6.232-0.764 12.842 2.441 18.462s8.491 9.818 14.771 11.727c6.468 1.895 13.444 1.198 19.388-1.938s10.372-8.455 12.314-14.787c5.568-17.071 6.549-34.808 7.147-51.663zM866.15 354.347c-0.013-3.26-0.683-6.485-1.971-9.489-1.293-2.999-3.174-5.726-5.547-8.013s-5.184-4.087-8.269-5.308c-3.089-1.216-6.391-1.822-9.719-1.783-6.716 0.111-13.12 2.778-17.86 7.437s-7.437 10.94-7.526 17.51c0.030 3.324 0.73 6.609 2.065 9.668 1.335 3.055 3.273 5.824 5.709 8.145 2.432 2.321 5.308 4.143 8.465 5.367s6.532 1.826 9.929 1.766c3.328-0.055 6.609-0.755 9.66-2.057 3.046-1.306 5.798-3.191 8.098-5.542 2.3-2.355 4.1-5.129 5.295-8.171 1.195-3.038 1.762-6.281 1.673-9.532zM443.904 768.375c3.328 0.002 6.622-0.64 9.694-1.889s5.858-3.080 8.205-5.388c2.347-2.308 4.203-5.047 5.466-8.061 1.259-3.013 1.899-6.24 1.877-9.496-0.068-6.577-2.765-12.867-7.514-17.521s-11.166-7.306-17.886-7.385c-3.396-0.002-6.758 0.659-9.89 1.945-3.136 1.285-5.973 3.169-8.352 5.541s-4.252 5.184-5.508 8.273c-1.256 3.089-1.87 6.391-1.807 9.716 0.039 3.252 0.737 6.465 2.055 9.451s3.228 5.687 5.62 7.944c2.394 2.257 5.219 4.027 8.316 5.207s6.404 1.745 9.724 1.664zM721.715 779.249c0.094-3.27-0.486-6.525-1.702-9.571s-3.046-5.822-5.385-8.163c-2.334-2.34-5.124-4.198-8.209-5.461-3.081-1.263-6.391-1.908-9.732-1.894-3.341-0.060-6.665 0.529-9.771 1.733-3.11 1.204-5.943 2.998-8.337 5.28-2.398 2.282-4.305 5.005-5.619 8.014s-2.005 6.241-2.039 9.513c-0.047 6.604 2.577 12.957 7.296 17.678 4.715 4.721 11.149 7.424 17.894 7.523 3.341 0.050 6.66-0.55 9.762-1.766s5.926-3.023 8.307-5.317c2.381-2.294 4.275-5.028 5.568-8.044s1.963-6.253 1.967-9.524zM902.345 602.080c-0.004-3.268-0.666-6.504-1.95-9.521s-3.17-5.754-5.542-8.053c-2.372-2.3-5.188-4.117-8.282-5.346s-6.404-1.846-9.745-1.815c-3.337 0.010-6.643 0.664-9.724 1.925s-5.875 3.105-8.226 5.426c-2.351 2.32-4.215 5.072-5.478 8.098s-1.903 6.265-1.886 9.534c0.047 6.601 2.765 12.915 7.561 17.558 4.791 4.643 11.273 7.237 18.014 7.213 3.341-0.011 6.643-0.668 9.724-1.933 3.076-1.265 5.871-3.113 8.218-5.437s4.203-5.081 5.457-8.11c1.254-3.028 1.886-6.27 1.86-9.539z" />
</font>
</defs>
</svg>
